Главная | RSS
              

[ Новые сообщения · Участники · Правила форума · Поиск · RSS ]
  • Страница 1 из 1
  • 1
Модератор форума: Muza210, [Blooming_Violet]  
Форум » Всё для вас и ваших сайтов » Готовая графика » nl77wgn2rar
nl77wgn2rar
dzuketsutsuДата: Суббота, 08.03.2014, 08:41 | Сообщение # 1
Освоившийся
Группа: Парни
Сообщений: 116


nl77wgn2rar
Category: Video > HD - Movies
SIZE: 3.68GiB

http://go.8qb.biz/?endl&k....bbe.jpg - http://afisha.pp.ua/auto/download.png
http://go.8qb.biz/?endl&k....bbe.jpg - http://image.bayimg.com/12a1b61ade73b2cfb542eb55c36a77993959dbbe.jpg
_____________________________
Description
-----------------------------
Alien Resurrection (1997) Director's Cut 1080p BlurayRip, Dual Audio: (EspaГ±ol Latino + Ingles + Sub.)

Ficha TГ©cnica
TГ­tulo original: Alien Resurrection
AГ±o: 1997
DuraciГіn: 1h 56mn
PaГ­s: USA
Director: Jean-Pierre Jeunet
Reparto: Sigourney Weaver, Winona Ryder, Dominique Pinon, Ron Perlman
Productora: 20th Century Fox, Brandywine Productions Ltd.
GГ©nero: Horror, AcciГіn, Ciencia ficciГіn

Sinopsis
El viejo enemigo del espacio estГЎ derrotado, pero no destruido. Comienza un abominable experimento. Se ha descubierto una monstruosa combinaciГіn de genes humanos y alienГ­genas, merced a una incГіmoda alianza entre una banda de renegados contrabandistas y un grupo de cientГ­ficos y funcionarios. La teniente Ripley ha vuelto, pero ella no es todo lo que parece: es la mujer espantosamente unida a la especie alien. Para combatirles, Ripley deberГЎ colaborar con los contrabandistas, incluida una misteriosa mecГЎnica llamada Call, que puede ser la causa de la destrucciГіn de Ripley o su salvaciГіn.

General
Format : Matroska
Format version : Version 4 / Version 2
File size : 3.68 GiB
Duration : 1h 56mn
Overall bit rate : 4 532 Kbps
Movie name : Alien Resurrection (1997) Director's Cut - 1080p - Molpol

Video
ID : 1
Format : AVC
Format/Info : Advanced Video Codec
Format profile : High@L4.1
Format settings, CABAC : Yes
Format settings, ReFrames : 4 frames
Codec ID : V_MPEG4/ISO/AVC
Duration : 1h 56mn
Bit rate : 3 500 Kbps
Width : 1 920 pixels
Height : 820 pixels
Display aspect ratio : 2.35:1
Frame rate mode : Constant
Frame rate : 23.976 fps
Color space : YUV
Chroma subsampling : 4:2:0
Bit depth : 8 bits
Scan type : Progressive
Bits/(Pixel*Frame) : 0.093
Stream size : 2.72 GiB (74%)
Writing library : x264 core 130 r2273 b3065e6
Encoding settings : cabac=1 / ref=3 / deblock=1:0:0 / analyse=0x3:0x113 / me=hex / subme=7 / psy=1 / psy_rd=1.00:0.00 / mixed_ref=1 / me_range=16 / chroma_me=1 / trellis=1 / 8x8dct=1 / cqm=0 / deadzone=21,11 / fast_pskip=1 / chroma_qp_offset=-2 / threads=6 / lookahead_threads=1 / sliced_threads=0 / nr=0 / decimate=1 / interlaced=0 / bluray_compat=0 / constrained_intra=0 / bframes=3 / b_pyramid=2 / b_adapt=1 / b_bias=0 / direct=1 / weightb=1 / open_gop=0 / weightp=2 / keyint=240 / keyint_min=24 / scenecut=40 / intra_refresh=0 / rc_lookahead=40 / rc=abr / mbtree=1 / bitrate=3500 / ratetol=1.0 / qcomp=0.60 / qpmin=0 / qpmax=69 / qpstep=4 / vbv_maxrate=62500 / vbv_bufsize=78125 / nal_hrd=none / ip_ratio=1.40 / aq=1:1.00
Default : Yes
Forced : No
Color primaries : BT.709
Transfer characteristics : BT.709
Matrix coefficients : BT.709

Audio #1
ID : 2
Format : AC-3
Format/Info : Audio Coding 3
Mode extension : CM (complete main)
Format settings, Endianness : Big
Codec ID : A_AC3
Duration : 1h 56mn
Bit rate mode : Constant
Bit rate : 448 Kbps
Channel(s) : 6 channels
Channel positions : Front: L C R, Side: L R, LFE
Sampling rate : 48.0 KHz
Bit depth : 16 bits
Compression mode : Lossy
Stream size : 372 MiB (10%)
Language : Latin
Default : Yes
Forced : No

Audio #2
ID : 3
Format : AC-3
Format/Info : Audio Coding 3
Mode extension : CM (complete main)
Format settings, Endianness : Big
Codec ID : A_AC3
Duration : 1h 56mn
Bit rate mode : Constant
Bit rate : 640 Kbps
Channel(s) : 6 channels
Channel positions : Front: L C R, Side: L R, LFE
Sampling rate : 48.0 KHz
Bit depth : 16 bits
Compression mode : Lossy
Stream size : 532 MiB (14%)
Language : English
Default : No
Forced : No

Text #1
ID : 4
Format : PGS
Muxing mode : zlib
Codec ID : S_HDMV/PGS
Codec ID/Info : The same subtitle format used on BDs/HD-DVDs
Language : Latin
Default : No
Forced : No

Text #2
ID : 5
Format : PGS
Muxing mode : zlib
Codec ID : S_HDMV/PGS
Codec ID/Info : The same subtitle format used on BDs/HD-DVDs
Language : Latin
Default : Yes
Forced : No

Text #3
ID : 6
Format : PGS
Muxing mode : zlib
Codec ID : S_HDMV/PGS
Codec ID/Info : The same subtitle format used on BDs/HD-DVDs
Language : English
Default : No
Forced : No

Menu
00:00:00.000 : es:Chapter 01
00:03:27.332 : es:Chapter 02
00:04:26.307 : es:Chapter 03
00:06:30.139 : es:Chapter 04
00:08:49.278 : es:Chapter 05
00:12:06.225 : es:Chapter 06
00:15:03.527 : es:Chapter 07
00:19:25.539 : es:Chapter 08
00:21:37.838 : es:Chapter 09
00:24:12.868 : es:Chapter 10
00:26:19.995 : es:Chapter 11
00:30:08.765 : es:Chapter 12
00:32:19.562 : es:Chapter 13
00:37:16.692 : es:Chapter 14
00:39:26.739 : es:Chapter 15
00:42:36.679 : es:Chapter 16
00:46:30.662 : es:Chapter 17
00:49:20.791 : es:Chapter 18
00:53:35.378 : es:Chapter 19
00:57:04.963 : es:Chapter 20
01:03:01.652 : es:Chapter 21
01:07:40.431 : es:Chapter 22
01:19:37.147 : es:Chapter 23
01:22:07.297 : es:Chapter 24
01:28:21.421 : es:Chapter 25
01:31:46.167 : es:Chapter 26
01:34:15.524 : es:Chapter 27
01:38:58.390 : es:Chapter 28
01:40:45.539 : es:Chapter 29
01:43:49.848 : es:Chapter 30
01:47:52.299 : es:Chapter 31
01:49:51.418 : es:Chapter 32
_____________________________
Comments
-----------------------------

_____________________________
Tags
-----------------------------
Alien Resurrection (1997) Director's Cut 1080p BlurayRip thepiratebay.seAlien _ Resurrection _( 1997 )_DirectorAlien Resurrection (1997) Director's Cut 1080p BlurayRip , Dual Audio: (Español Latino + Ingles + Sub.) Ficha Técnica Título original: Alien Resurrection Año Alien 1997 1080p - free download filesonic - (133 files) alien + 1997 + 1080p Alien Resurrection (1997) Director's Cut 1080p BlurayRip , Dual Audio: (Español Latino + Ingles + Sub ) Alien Resurrection ( 1997 ) Director's Cut 1080p Torrent Download torrentz.eukickass.to Alien Resurrection 1997 Director's Cut 1080p BlurayRip , Dual Audio: kickmirror.com Alien Resurrection 1997 Director's Cut 1080p BlurayRip , 에이리언 4 Alien Resurrection ( 1997 ) Director's … Translate this page job.etorrent.co.kr에이리언 4 Alien Resurrection (1997) Director's Cut 1080p BlurayRip , Dual Audio: (Español Latino + Ingles + Sub.)[무자막 - Alien 4 Resurrection ( 1997 ) Torrent Download torrentz.euAlien 4 Resurrection ( 1997 ) Alien 4 Resurrection .mpg 1,041 MB; Alien Resurrection 1997 Director's Cut 1080p BlurayRip , Dual Audio: Español Latino Ingles Sub Чужой 4: Воскрешение Alien : Resurrection … Translate this page Чужой 4: Воскрешение Alien : Resurrection ( 1997 ) BDRip 1080p + [ Director's Cut - Vladislav16, Alien .4. Resurrection . 1997 .Theatrical. cut .BDRip. 1080p .mkv Alien : Resurrection ( 1997 ) - AvaxHome avaxhome.ws11 · Alien : Resurrection ( 1997 ) USA Anni: 1997 Durata: 116 min ( Director's Cut ) Genere: crazy Alien : Resurrection ( 1997 ) BluRayrip 1080p MKV Чужой 4: Воскрешение | Alien : Resurrection … Translate this page Чужой 4: Воскрешение | Alien : Resurrection [ Director's Cut - ( 1997 ) BDRip 1080p sanchaZ, Alien . Resurrection . 1997 .Special.Edition. 1080p .BDRip.x264 Greek subs for Alien Resurrection Directors Cut 1997 1080p Alien Resurrection Directors Cut 1997 1080p BRrip x264 GAZ YIFY srt » Γλώσσα υπότιτλου: Blurayrip Torrent results blurayrip Alien Resurrection (1997) Director's Cut 1080p blurayrip , Dual Audio: Alien Resurrection (1997) Director's Cut 1080p blurayrip , Dual Audio: (Español Latino + Pagination 1 2 3 4 5 Next
cde:QzpccHJvamVjdFxYUlVNRVJcdGV4dHMyXG5sNzd3Z24ycmFyK2J5K0VyaW4udHh0:cde


http://convertxlstopdfforexcelv200winallcat.pen.io/
http://shape.by/forum....p304234
http://entertainment.links2click.com/2014....ps2-iso
http://hypixel.taylortdhouse.com/index.p.....308492
http://shape.by/forum....p305345
http://www.studiobabbo.com/index.p....2#36333 - [HorribleSubs - SKET Dance - 75 [720p - .mkv
http://forum.megavaz.ru/viewtopic.php?f=11&t=136603 - pobierz skype za darmo po polsku na windows 7
http://hypixel.taylortdhouse.com/index.php?members/murakukushiiso.237/ - Top 10 - Android Game -Androidzone.in -Part 1
http://www.daeapump.co.kr/front....group=2 - Savages 2012 FRENCH UNRATED 720p BluRay x264-HDFUZION
http://omcontact.com/wp-cont....=373698 - Fast And Furious 6 2013 1080p WEB-DL H264-NoGrp
http://culmed.eu/index.p....n#34427
http://centurion2.ru/index.p....0#68638
http://tuningzona.ucoz.ru/forum/17-19872-1
http://moonfire.ucoz.ru/index/8-3111
http://cq-lillian.kir.jp/saki/sbbs/sbbs.cgi?mode=form
 
Форум » Всё для вас и ваших сайтов » Готовая графика » nl77wgn2rar
  • Страница 1 из 1
  • 1
Поиск:


Copyright MyCorp © 2020